» демо версия » Студия Marvel: Легенды / Marvel Studios: Legends [01x01-09 из 10] (2021) WEB-DLRip 1080p | D | Flarrow Films

Студия Marvel: Легенды / Marvel Studios: Legends [01x01-09 из 10] (2021) WEB-DLRip 1080p | D | Flarrow Films - скачать торрент бесплатно

полный обзор

Название: Студия Marvel: Легенды
Оригинальное название: Marvel Studios: Legends
Год выхода: 2021
Жанр: боевик, фэнтези, фантастика, документальный
Режиссер: Кевин Файги, Энтони Руссо, Джо Руссо
В ролях: Элизабет Олсен, Пол Беттани, Том Хиддлстон, Себастиан Стэн, Энтони Маки, Крис Эванс, Роберт Дауни мл, Джереми Реннер, Крис Хемсворт, Марк Руффало, Чедвик Боузман, Джеймс Спэйдер, Бенедикт Камбербэтч, Джош Бролин

О фильме:
За все годы собственного существование киновселенная под названием Марвел начинает расширяться просто в невероятных размерах. Появляются всё новые персонажи, как положительного, так и отрицательного характера. Авторы постараются окунуться головой в прошлые моменты, как всё начиналось. Согласно сюжетной линии документальной ленты "Студия Marvel: Легенды" придется тщательно рассмотреть, с какими событиями шло появление многих супергероев.
Страна: США
Продолжительность: 00:07:24 (серия)
Перевод: Дублированный (любительский) | Flarrow Films

Роли озвучивали: Даниил Эльдаров, Маргарита Щелкунова, Лена Лунина, Семён Евсиков, Андрей Маслов, Ахилл Намазов, Максим Жидков, Евгений Леонов, Денис Кузьмичёв, Дмитрий Лунёв, Алексей Ядренников, Константин Федосеев, Рина Чернышова, Данила Глухов, Юрий Катарманов, Дмитрий Мальков

Файл
Формат: MKV
Кодек: MPEG-4 AVC
Качество: WEB-DLRip 1080p (локализованный видеоряд)
Видео: 1920х1080, ~ 14.4 Mb/s, 23.976, 8 bits
Звук: AC-3, 320 kb/s, 2 channels, 48.0 kHz
Субтитры: русские (отключаемые)
[spoiler=MediaInfo]

General
Unique ID : 202415828340200017592898795361922040902 (0x9847DED9354B26500E4E373C6901C446)
Complete name : C:FlarrowMarvel.Studios.Legends.S01.1080p.D.Flarrow.FilmsMarvel.Studios.Legends.S01E01.D.Flarrow.Films.mkv
Format : Matroska
Format version : Version 4
File size : 777 MiB
Duration : 7 min 24 s
Overall bit rate mode : Variable
Overall bit rate : 14.7 Mb/s
Encoded date : UTC 2021-01-18 13:48:08
Writing application : mkvmerge v32.0.0 ('Astral Progressions') 64-bit
Writing library : libebml v1.3.7 + libmatroska v1.5.0

Video
ID : 1
Format : AVC
Format/Info : Advanced Video Codec
Format profile : Main@L4.1
Format settings : CABAC / 2 Ref Frames
Format settings, CABAC : Yes
Format settings, Reference : 2 frames
Format settings, GOP : M=3, N=23
Codec ID : V_MPEG4/ISO/AVC
Duration : 7 min 24 s
Bit rate mode : Variable
Bit rate : 14.4 Mb/s
Maximum bit rate : 19.0 Mb/s
Width : 1 920 pixels
Height : 1 080 pixels
Display aspect ratio : 16:9
Frame rate mode : Constant
Frame rate : 23.976 (24000/1001) FPS
Color space : YUV
Chroma subsampling : 4:2:0
Bit depth : 8 bits
Scan type : Progressive
Bits/(Pixel*Frame) : 0.289
Stream size : 760 MiB (98%)
Language : Russian
Default : Yes
Forced : No

Audio
ID : 2
Format : AC-3
Format/Info : Audio Coding 3
Commercial name : Dolby Digital
Codec ID : A_AC3
Duration : 7 min 24 s
Bit rate mode : Constant
Bit rate : 320 kb/s
Channel(s) : 2 channels
Channel layout : L R
Sampling rate : 48.0 kHz
Frame rate : 31.250 FPS (1536 SPF)
Compression mode : Lossy
Stream size : 17.0 MiB (2%)
Language : Russian
Service kind : Complete Main
Default : Yes
Forced : No

Text
ID : 3
Format : UTF-8
Codec ID : S_TEXT/UTF8
Codec ID/Info : UTF-8 Plain Text
Duration : 7 min 15 s
Bit rate : 95 b/s
Count of elements : 105
Stream size : 5.05 KiB (0%)
Language : Russian
Default : Yes
Forced : No

[/spoiler]

[spoiler=Скриншоты]
[url=https://d.radikal.ru/d38/2101/b4/135ed73acf72.jpg]Примечание: Без интро Flarrow Films
Студия Marvel: Легенды / Marvel Studios: Legends [01x01-09 из 10] (2021) WEB-DLRip 1080p | D | Flarrow Films
Добавить в закладки
Удалить из закладок



Скачать с нашего сервера
Информация

Релиз Студия Marvel: Легенды / проверен Администрацией и Можно качать торрент, оставьте отзыв, поставьте оценку или просто поделитесь страничкой игры в социальных сетях. Если у вас проблемы с запуском или нормальной работой Студия Marvel: Легенды / на ПК, Предлагаем обсудить данную ситуацию в комментариях, наши опытные пользователи помогут вам с решением проблем. Если вы нашли ошибку в описании или файл поврежденный и не скачивается, воспользуйтесь специальной функцией (кнопка красного цвета "Жалоба", в первом верхнем углу описания)

Комментарии (0)

Комментариев еще нет. Вы можете стать первым!
Добавить комментарий