» фильмы и программы » Конец света / Lo inevitable (2021) WEB-DLRip-AVC | iTunes

Конец света / Lo inevitable (2021) WEB-DLRip-AVC | iTunes

полный обзор

Название: Конец света
Оригинальное название: Lo inevitable
Год выхода: 2021
Жанр: Ужасы, триллер
Режиссер: Феркс Кастеллани

В ролях: Хуана Вьяле, Дарина Бутрик, Лучано Касерес, Хавьер Годино, Карлос Порталуппи

Слоган: «Из мыслей Феркса Кастеллани»
О фильме: Грядет конец света. Следуя пророчествам, семья укрывается в заброшенном доме за считанные часы до Страшного суда. Самозваный спаситель войдет в этот дом, пошатнет их веру и определит судьбу.
Выпущено: Аргентина / Lunfardo Films
Продолжительность: 01:12:00
Перевод: Профессиональный (полное дублирование) | Lucky Production | iTunes

Файл
Качество: WEB-DLRip-AVC
Формат: MKV
Видео: MPEG-4 AVC, 2520 Кбит/сек, 1024x432
Аудио: Русский: AC3, 6 ch, 448 Кбит/сек
Субтитры: нет

[spoiler=MediaInfo:] Общее
Уникальный идентификатор : 109850506474856239416785481223797453692 (0x52A4701FA0BBEABABF34A40C2C0FB37C)
Полное имя : F:1.ФИЛЬМЫ1. ФИЛЬМЫКонец света Lo inevitable (2021)Konets sveta Lo inevitable (2021) WEB-DLRip-AVC iTunes.mkv
Формат : Matroska
Версия формата : Version 4
Размер файла : 1,49 Гбайт
Продолжительность : 1 ч. 12 м.
Общий поток : 2 963 Кбит/сек
Программа кодирования : Lavf
Библиотека кодирования : Lavf
Авторское право : *=#=*
ErrorDetectionType : Per level 1
Attachments : poster.png
Язык : und

Видео
Идентификатор : 1
Формат : AVC
Формат/Информация : Advanced Video Codec
Профиль формата : High@L4.1
Настройки формата : CABAC / 16 Ref Frames
Параметр CABAC формата : Да
Параметр RefFrames формата : 16 кадров
Идентификатор кодека : V_MPEG4/ISO/AVC
Продолжительность : 1 ч. 12 м.
Битрейт : 2 520 Кбит/сек
Ширина : 1 024 пикселя
Высота : 432 пикселя
Соотношение сторон : 2,40:1
Режим частоты кадров : Постоянный
Частота кадров : 24,000 кадра/сек
Цветовое пространство : YUV
Субдискретизация насыщенности : 4:2:0
Битовая глубина : 8 бит
Тип развёртки : Прогрессивная
Бит/(Пиксели*Кадры) : 0.237
Размер потока : 1,23 Гбайт (83%)
Заголовок : Argentina (Lunfardo Films)
Библиотека кодирования : x264 core 159 r2991 1771b55
Настройки программы : cabac=1 / ref=16 / deblock=1:-3:-3 / analyse=0x3:0x133 / me=umh / subme=11 / psy=1 / psy_rd=1.00:0.15 / mixed_ref=1 / me_range=32 / chroma_me=1 / trellis=2 / 8x8dct=1 / cqm=0 / deadzone=21,18 / fast_pskip=0 / chroma_qp_offset=-3 / threads=29 / lookahead_threads=3 / sliced_threads=0 / nr=60 / decimate=0 / interlaced=0 / bluray_compat=0 / constrained_intra=0 / bframes=16 / b_pyramid=2 / b_adapt=2 / b_bias=10 / direct=3 / weightb=1 / open_gop=0 / weightp=2 / keyint=240 / keyint_min=24 / scenecut=40 / intra_refresh=0 / rc_lookahead=60 / rc=2pass / mbtree=0 / bitrate=2520 / ratetol=1.0 / qcomp=0.70 / qpmin=3 / qpmax=69 / qpstep=4 / cplxblur=20.0 / qblur=0.5 / vbv_maxrate=5000 / vbv_bufsize=4000 / nal_hrd=none / filler=0 / ip_ratio=1.40 / pb_ratio=1.30 / aq=1:0.60
Default : Да
Forced : Нет
Цветовой диапазон : Limited
Основные цвета : BT.709
Характеристики трансфера : BT.709
Коэффициенты матрицы : BT.709

Аудио
Идентификатор : 2
Формат : AC-3
Формат/Информация : Audio Coding 3
Коммерческое название : Dolby Digital
Идентификатор кодека : A_AC3
Продолжительность : 1 ч. 12 м.
Вид битрейта : Постоянный
Битрейт : 448 Кбит/сек
Каналы : 6 каналов
Channel layout : L R C LFE Ls Rs
Частота : 48,0 КГц
Частота кадров : 31,250 кадров/сек (1536 SPF)
Битовая глубина : 32 бит
Метод сжатия : С потерями
Размер потока : 231 Мбайт (15%)
Заголовок : MVO (Lucky Production | iTunes)
Service kind : Complete Main
Default : Да
Forced : Нет
[/spoiler][spoiler=Скриншоты] 16+
[url=http://youtu.be/Kcw7kPCgURA]ТРЕЙЛЕР

СЭМПЛ
Конец света / Lo inevitable (2021) WEB-DLRip-AVC | iTunes
Добавить в закладки
Удалить из закладок





Скачать с нашего сервера

Комментарии (0)

Комментариев еще нет. Вы можете стать первым! За активность в комментариях вы получаете звания и ранги
Добавить комментарий